&title=Love Letters
&artist=Jade Kim「A Dance of Fire and Ice」
&first=0
&des=A Dance of Moons and Stars
&wholebpm=42.5
&clock_count=4
&demo_seek=28.2
&demo_len=22.6
&lv_5=13+
&des_5=A Dance of Moons and Stars
&inote_5=(42.5){4},{8},,3<3[4:1]*V58[8:1],5,{4}3q4[16:7],
{32}6-8[16:1],,,7,{8}7-4[16:1],6p5[16:7],7,{32}3-1[16:1],,,2,{8}2-5[16:1],3p1[16:7],2,
{32}6-4[16:1],,,5,{8}5-8[16:1],6q8[16:7],5,{32}3-5[16:1],,,4,{8}4-1[16:1],3p1[16:7],4b,
{32}6-4[16:1],,,4,{16}4-7[16:1],6,{8}6q8[16:7],4,{32}3-5[16:1],,,5,{16}5-2[16:1],3,{8}3q4[16:7],5,
{32}7-1[16:1],,,1,{16}1-6[16:1],7,{8}7p6[16:7],1,{32}3-5[16:1],,,5,{16}5-2[16:1]*-2[16:1],3,{8}3-1[32:1]*>7[16:7],5b,
3b,{32}5v7[16:1],,,5,{16}5>3[32:1]*V31[16:7],5,{8}5,5b,{32}7v1[16:1],,,7,{16}7<3[16:7]*-1[32:1],7,{8}7,
7b,{32}1v3[16:1],,,1,{16}1V75[16:7]*>3[32:1],1,{8}1,1b,{32}3v5[16:1],,,3,{16}3-8[24:1]*qq5[16:7],3,{8}3b,
3b,{32}6V85[16:1],,,6,{16}6-1[32:1]*pp4[16:7],6,{8}6,6b,{32}3V14[16:1],,,3,{16}3qq8[16:7]*<5[32:1],3,{8}3,
3b,{32}7V58[16:1],,,7,{16}7qq4[16:7]*>1[32:1],7,{8}7,7b,{32}3V14[16:1],,,3,{16}3-6[16:1]*-8[16:1],3,{8}3b,
3b-7[16:1],{24}2<8[24:1],1<7[24:1],,{8}4-6[16:1]/3-6[16:1],2,4b-8[16:1],{24}5-7[24:1],7-1[24:1],,{8}4/6-3[16:1]*-2[16:1],5,
6b-1[16:1],{24}4>2[24:1],3>1[24:1],,{8}6-3[16:1]/5-7[16:1],4,5b-1[16:1],{24}4-2[24:1],2-5[24:1],,{8}5/3>8[16:1]*V17[16:1],4b,
3b<5[16:1],{24}1-7[24:1],8-6[24:1],,{8}3v5[16:1]/2-5[16:1],1,2b-7[16:1],{24}7-5[24:1],5-3[24:1],,{8}7>2[16:1]*V13[16:1],7,
7b<4[16:1],{24}3-1[24:1],2-8[24:1],,{8}4-8[16:1]/7v5[16:1],3,4b-2[16:1],{24}1-7[24:1],7-2[24:1],,{8}4pp7[16:15],1b,
1-3[16:1],2-4[16:1],,,2,8-2[16:1],{4}2pp5[16:15],
{8}6-8[16:1],7-1[16:1],,,8,7-5[16:1],8-3[16:1]*-4[16:1],7bV51[16:5],
8,3-6[16:1],4-7[16:1]*-8[16:1],3V15[16:5],4,8-6[16:1],2-4[16:1],8,
{16}2/8-5[16:1],8<5[16:1],5>2[16:1]*-1[16:1],2-5[16:1],{4}8,{16}7-1[32:1],1-3[32:1],4V63[16:1],6,{8}7b-3[16:1]*V15[16:7],4b,
7,{32}2-4[16:1],,,3,{16}3-7[16:1]*V51[16:7],3,{8}2,3,{32}8-6[16:1],,,7,{16}7pp3[16:7]*-4[16:1],7,{8}8,
7,{32}5-3[16:1],,,4,{16}4pp8[16:7]*-2[16:1],4,{8}5,4,{32}3<5[16:1],,,2,{16}2<7[16:1]*V83[16:7],2,{8}3b,
2,{32}7-4[16:1],,,6,{16}6V41[16:7]*-8[16:1],6,{8}7,6,{32}7-1[16:1],,,6,{16}6<5[16:7]*-3[16:1],6,{8}7,
6,{32}2-5[16:1],,,7,{16}7<8[16:7]*-2[16:1],7,{8}2,7,{32}2-8[16:1],,,5,{16}5pp5[4:1]*qq5[4:1],4,{8}2b,
{1}5b<1[4:1]*>1[4:1],
E
