&title=GOODFORTUNE
&artist=EBIMAYO
&first=0
&lv_5=14
&des_5=GOODANS
&inote_5=
(170){4},{8},,,,,,4/8-6-4[4:1],
4,,3,3,2,{4}3-1-7[4:1],
{8}6,7,,6,5-8[8:1]*-1[8:1],4,{4}5,
{8}2-7[8:1],5,2-5[8:1],5,{4}2<7[8:1],{8}2/6,6,
6,5/3,2,3/5,6,5/3,7/8,1/6,
5/1-3-5[4:1],5,,6,6,7,{4}6-8-2[4:1],
{8}3,2,,3,4-1[8:1]*-8[8:1],5,{4}4,
{8}7-2[8:1],4,7-4[8:1],4,{4}7>2[8:1],{8}7/3,3,
{16}3,4,2,5,1,6,8,7,1,7,2,8,{4}Ch[16:0],
{16}7,1,8,2,1,3,8,2,{8}7-4[8:1],1-5[8:1],7,1,
{16}6,4,5,3,4,2,5,3,{8}6-1[8:1],2>5[8:1],6,2,
8-4[8:1],7,8/1-5[8:1],2,1/8<5[8:1],7,8,2,
3v8[8:1],8-2-4[8:1],3,6pp1[4:1],,3b,3b,3b,
{16}2,8,1,7,8,6,1,7,{8}2>5[8:1],8-4[8:1],2,8,
{16}3,5,4,6,5,7,4,6,{8}3-8[8:1],7-4[8:1],3,7,
1-5[8:1],2,1/8-4[8:1],7,8/1,2,{32}8/1,2,3,4,5,6,7,8,
{4}1bh[4:3]/5s1-5b[8:3],,,C,
{8}6,6,4,4,{16}4/6h[8:3],,,5,,,{8}4,
3,3,5,5,{16}5/3h[8:3],,,4,,,{8}5,
6,6,4,4,{16}4/6h[8:3],,,5,,,{8}4,
{4}3h[8:5],{8}1,1h[4:1],{16},,,,8,7,{8}6,
2,2,8,8,{16}B7/B6/E7,,,4/3,,,{8}3/5,
7,7,1,1,{16}B2/B3/E3,,,5/6,,,{8}6/4,
7,7/1,2,8/2,{16}7/B4,,,3/B7,,,{8}6/B4,
{4}Ch[4:3],B7h[2:1],{2}B2h[4:1],
{8}6/4,{16}5/3,,{8}6/4,6/4,2<7[8:1],{16}5,5,,,{8}4,
3/5,4/6,3/5,3/5,7>2[8:1],{16}4,4,,,{8}5,
7/1,8/2,7/1,1/7,8-6-4[8:1],{16}2,2,,,{8}3,
{4}3qq5[8:3],{8}6,6h[4:1],{16},,,,7,6,{8}5,
3/6,2/7,{16}6/3qq8[0.3529##0.5294],,{8}3,{16}5,,,5,,,{8}5,
3/7,8/2,3/7pp3[8:3],7,{16}4,,,4,,,{8}4,
1,2/5,8,7/4,{16}6/2,,,8/4,,,{8}7/2,
{4}8-4[8:1]/1-5[8:1],1>4[8:1]/8<5[8:1],1-5[8:1]/8-4[8:1],8/1/B8/B1,
{8}B5h[8:13],2h,B6,3h,B4,2h,B6,3h,
B4,2h,B6,3h,B4,2h,6/4,5/3,
B4h[8:13],7h,B3,6bh,B5,7h,B3,6bh,
B5,7h,B3,6bh,B5,7h,{16}4,5,4,5,
{8}6/3>8[8:1],3,6,5,4<7[8:1],4,1,2,
3-8[8:1],3,5,6,7w3[8:1],8/6,{4}7,
{16}7x,5,6,5,8x,4,5,4,1x,3,4,3,{8}5x/2x,6/2,
1h[16:1]/7h[16:1],7h[16:1]/1h[16:1],6h[16:1]/2h[16:1],6h[16:1]/2h[16:1],{4}3/5-2[8:1],5/4v1b[8:1]*v7b[8:1],
4b,{8}7xh[8:1],8,2h[8:1],1,8/1,2/7,
3v8[8:1],8-2-4[8:1],3,6,7-3[8:1],3-5[8:1],7,2,
1,6/2,7-4[8:1],4-6-8[8:1],7,1,1v4[8:1],7<4[8:1],
1-3[8:1]*-4[8:1],7,{4}1-7[8:1]*-6[8:1],1,{16}3,6,2,7,
{4}8b/1b,{8}6xh[8:1],7,3h[8:1],2,6/3,4/5,
3-1[8:1],1v4[8:1],3,6,6-2[8:1],2-8[8:1],6,4,
{4}4h[4:1],{8}1,8<5[16:3],,1,{4}2<3v5b[4:3],
{8},,,,,,,,6,
2/7,{16}8x,3,4,3,8x,3,4,3,{8}8x,6x/2x,
6,4/3,{16}3,4,2,6,5,7,1,8,{8}1-5[8:1],8-4[8:1],
1,8,{16}1x,6,5,6,1x,6,5,6,{8}1x,7x/2x,
6,2/7,{16}1,8,{8}1,6,7/3,{4}2/8<5[8:1],
{24}8/1,2,3,4,{48},,,,{16}8x,4,5,4,2x,4,5,4,{8}6x,5x/3x,
4,5/3,6/4,{16}6,5,{8}7,{16}3,4,{8}2-8[8:1],8-4[8:1],
{4}6h[8:1],{8}6,6pp5[4:1],,4,3,2,
{16}1,7,1,6,2,7,3,8,4,1h[16:3],{8}5h[8:1],{64},D5/D1,A4/A8,D4/D8,A3/A7,D3/D7,{32}A2/A6,,,,,{8}6/4,
3/5,6/4,3/5,4/6,{16}4-8[8:1],6,,,{8}4/6,
5,6/4,3/5,6/4,5/3,{16}5-1[8:1],3,,,{8}5/3,
3,2/8,7/1,2/8,1/7,{16}1-5[8:1],8,,,{8}1/8,
{4}8<4[4:1],{8}4q6[4:1],4,{16},,,,8,1,2,3,
{8}4/8,6/2,5/3,6/2,7-1[8:1],{16}1v6[8:1],1,,,{8}3,
3,3/7,4/6,3/7,2-8[8:1],{16}8v3[8:1],8,,,{8}6,
6,7/3,8/2,7/3,6-4[8:1],{16}4v7[8:1],4,,,{8}2,
{4}1-6[8:1]*-4[8:1],1>4[8:1]*<6[8:1],1w5[8:1]*-5[8:1],1b,
{8}7-3-5-1[8:3],2,7,1,2,{16}2-5[8:1],2,,,{8}2/7,
7,3-8-2-5[8:3],6,3,6,{16}7-4[8:1],7,,,{8}7/1,
1-5-8-3[8:3],5,6,7,7,{16}6-1[8:1],6,,,{8}6/4,
{4}4h[8:5],{8}8,8h[4:1],{16},,,,8/4,7/3,{8}2/6,
3-7>1-5[8:3],6,3,5,6,{16}6-1[8:1],6,,,{8}6/3,
3,7-4<6-1[8:3],2,7,2,{16}3-8[8:1],3,,,{8}3/5,
5-1-4<7[8:3],1,2,3,3,{16}2-5[8:1],2,,,{8}2/8,
{4}1s5<4[2:1],,,Cf,
{8}6b/2b,{16}5,3,{8}5,3-8[8:1],8-2[8:1],3,5,6,
5/3,{16}2,6,{8}2,5/3,1h[16:1]/7h[16:1],7h[16:1]/1h[16:1],2h[16:1]/6h[16:1],6h[16:1]/2h[16:1],
{16}1bh[8:1]/2b-5[8:1],,,1,{8}2,8,2/7-4[8:1],8,7/2>5[8:1],1,
{24}2/6,7,8,1,2,3,{8}4/8,1/5,{16}6,6,3,3,7,1,6,2,
{8}5b/3b,{16}6,4,{8}7-4[8:1],1-5[8:1],7,1,{16}6,7,8/4,3,
{8}2/6,{16}7,3,{8}6,5/3,3/6-1[8:1],5,6/3-8[8:1],3,
6b/3b,{16}5,2,5,2,{8}1/6,3b/8b,{16}4,7,4,7,{8}8/3,
7b/2b,{16}3,6,3,6,{8}7/2,{2}1bp4b[8:1]/8bq5b[8:1],
{16}2,5,2,5,1,7,1,7,{8}1-5[8:1],5-3[8:1],1,6,
7,6/2,{16}1/5,2,3,4,{8}5/1-6[8:1],3-8[8:1],1,3,
{16}7b-3[8:1],,,1,{8}7/1-5[8:1],2,1/7-4[8:1],7,7/1,2,
{16}6,4,8,3,5,1,{8}7pp2[16:5],5h[16:1],5h[16:1],4h[16:1],4h[16:1],
{16}3,8,3,8,1,7,1,7,{8}1-5[8:1],5-3[8:1],1,6,
7,6/2,{16}1/5,2,3,4,{8}5/1-6[8:1],3-8[8:1],1,3,
{16}7b,4,5,2,6b,4,4,7,2b,8,1,8,3b,7,7,3,
7b,6,5,4,3/7b,2,1,8,{4}3b-6b[8:1]/7-2b[8:1],B7/B3/Cf,
{1}1x-6-3-7-2-5-8-4-1b[2:5],
6xh,
3xh,
{16}B7,,,B2,,,B6,B5,{8}B4,B2/B3,B7/B6,B8/B1,
{1}B7/B2/B6/B3/Ch[8:1],
E
