&title=UNDEAD
&artist=YOASOBI
&first=0
&des=はくこう
&lv_5=14
&inote_5=(144)
{1},
{16}2xb,,4xh[8:1]/3xh[8:1],,,,6h[8:1]/5h[8:1],,,,6,5,,5,,5,
{16}7xb,,6xh[8:1]/5xh[8:1],,,,3h[8:1]/4h[8:1],,,,3,4,,4,,4,
{16}1xb,,2xh[8:1]/4xh[8:1],,,,6h[8:1]/5h[8:1],,,,7,5,,5,,5,
{16}8xb,,7xh[8:1]/5xh[8:1],,,,3h[8:1]/4h[8:1],,,,1w5[48:5]/5,,,,1,,
{16},,75,,8,,75,,4,,7h[8:1],,5,6h[8:1],,4,
{16}5,,43,,2,,43,,5,,3h[8:1],,5,4h[8:1],,6,
{16}5,,65,,7,,65,,7-4[48:5],7,,,7-3[48:5],,1,,
{16}7,,5b,5bh[4:1],,3b,,7b,,1b,,4bv1b[64:5]*v7b[64:5],4b,,C8f,,
{16},,6xh[4:1],,8x,,5h[4:1],,7,,6,5,7-5[12:1],8,,1,
{16}7xb,,3xh[4:1],,1x,,4h[4:1],,2,,3,4,2-4[12:1],1,,8,
{16}2xb,,6xh[4:1],,8x,,5h[4:1],,7,,6,5,7-5[12:1],8,,1,
{16}7xb,,3xh[4:1],,1x,,4h[4:1],,A2/E3/B2,,5h[8:3],,A7f/E8/B7,,A3f/E4/B3,,
{16}A1f/E2/B1,,7xb,,,,24,,3,,6,5,7,5,,3,
{16}4,2,4,3,5h[8:1],,7,5,7,5,1,1,6,6,3,3,
{16}8,8,{24}4x,3,2,1,8,7,
6x/3x,2,1,8,7,6,
2x/5x,3,4,5,6,7,
8x/5xs1-7[16:4],4,3,2,1,8,
{48}7x-3-5b[48:10]/5x,,,,,,{16},,,,,,8b,,,,26,,
{16}1,8,1b,,2,,34,,6,5,7,,2x,2xh[16:3],,,
{16}8,1,8,,7,,56,,2,2,,5,4,6,5,,
{16}8x,,2x/6x,,A1/B1,A7/B7,A3/B3,A5/B5,C1,,A2/B2,A8/B8,A4/B4,A6/B6,C2,,
{16}3x/7x,,2,2,8,6xbh[8:1],,8,2xbh[8:1],,4,6xbh[8:1],,4,C1f,,
{16},,1b/8b,,7,,65,,3,4,2,,7x,7xh[16:3],,,
{16}2,,43,,7,7,,4,5,3,4,,1x,1xh[16:3],,,
{16}7-5[12:1],,4-7[48:5],,1,,3,,2-4[12:1],,5-2[48:5],,8,,6,,
{16}7,,4xb-7[48:6],,,,2x/4xb-1[48:5],,3,,4xb/6x,,,,
{32}A5/1-5[48:5],D6,A6,D7,A7,D8,A8,D1,
{16}1x/3xb,,,,2h[8:1],,4h[8:1],,3h[8:1],,6,5,7,,5x/3h[8:1],,
{16}8xb,,56,,3,4,2,,4/6h[8:1],,2,6,5,,18,,
{16}3-5-2[48:10],,5,,8,,6,,7-4-6[48:10],,4,,1,,3,,
{16}2,,7x-5-8[48:11],,5x-3[48:5],,,,,,,,
{32}A4/8-4[48:6],D4,A3,D3,A2,D2,A1,D1,
{16}8x/6xb,,,,7h[8:1],,5h[8:1],,6h[8:1],,3,4,2,,4x/6h[8:1],,
{16}1xb,,43,,6,5,7,,5/3h[8:1],,7,3,4,,81,,
{16}2-5-1[48:11],,5,,8,,6,,7-4-6[48:10],,4,,1,,3,,
{16}2-8-3-7-4-6b[48:27],,,,,,,,,,,,,,
{16}8,,8h[2:1],,,,B7,,,,6,,6h[8:3],,B5,,
{16},,4h[2:1],,,,B3,,,,2v8[8:1]*pp4[48:7],,2,,,,
{16},,7,3,7,3,6,2,6,2,5,1,5,1,4,8,
{16}4,8,3xh[4:1]/7xh[4:1],,,,
{48},B7/B3`C1f,,,,,
{32},,,,1bxpp5b[48:17],8,7,6,5,4,3,2,1xb/7xb-4b[48:5],,,,
{16},,7xb,,,,2b/6b,,,,38,,6,5,7-3[48:5],,
{16}15,,7^2[48:5]/3^6[48:5],,,,37,,,,6,6,8v3[48:5],7,,1,
{16}8,,2,,{24}1/4-7[48:5],8,7,{16}6x,,24,,3,,{24}7/5-1[48:5],8,1,{16}2x,,
{16}57,,6,,{24}1/4-8[48:6],8,7,6x,,,{16}4bw8[8:1]/2,,,,4,,,,
{16}26,,3b/4b,,6,5,7,,2pp5[48:15],4,3,,6,6,,,
{16}8,,6,,3,4,2,,7p1[16:3],5,6,,2,2,,,
{16}4,,26,,7,5,,3,1v6[48:5],2,,8,1,,7,,
{16}48,,2-6[8:1]/6,,,,8-4[8:1]/2,,,,1^4b[12:1]/8,,,,{32}1xb/5xb,6,7,8,
{16}5xb/1xb,,C1f,,,,2h[8:1]/4,,8,,7h[8:1]/5,,1v6[48:5],8,,2,
{16}1,,4,,8,,7h[8:1]/5,,1,,2h[8:1]/4,,8v3[48:5],1,,7,
{16}8,,6,,{24}7/4-8[48:5],8,1,{16}2x,,46,,5,,{24}1/4-7[48:5],8,7,{16}6x,,
{16}42,,3,,{24}8/5-1[48:5],1,2,3x,,,{16}75,,8w4[48:6],,,,8,,
{16},,6b/5b,,2,4,3,,6pp4[48:15],5,7,,1,1,,,
{16}3,,1,,6,5,7,,2<4[48:11],4,3,,6,6,,,
{16}8,,21,,4,,87,,5,,2,2,4-8[48:5],3,,5,
{16}4,,6bh[8:1],,2b,2bh[4:1],,4b,,8b,,5bv8b[64:5]*v2b[64:5],5b,,C1f,,
{16},,A7/E7f`E6`A5,,,,2,,4-7[48:5],,2,,8-4b[48:5],,,,4-8b[48:5],,
{16},,8-3[48:5],,,,4-7[48:5],,2,,8-4-7[48:10],,2,,
{16},,A2/E3f`E4`A4,,,,7,,5-2[48:5],,7,,1-5b[48:5],,,,5-1b[48:5],,
{16},,1-6b[48:5],,,,5z1b[48:
9],,7,,1b,,,,
{16},,4xh[8:1]/3xb,,1,,5xh[8:1]/3x,,1,,3x,4,1,4,3x,8,
{16}3,4,3xh[8:1]/5x,,8,,6x/4xh[8:1],,8,,6x,5,8,5,6x,1,
{16}6,5,7xh[8:1]/4x,,1,,2xh[8:1]/6x,,8,,3x,4,1,4,3x,8,
{16}5,8,3xb-8[12:1],7x-3[12:1],,,3xb,7x,,,1b/5b,,C1,,C1,,
E
